» » Earth, Wind & Fire - Spirit
Earth, Wind & Fire - Spirit Album
Earth, Wind & Fire - Spirit Album
Performer: Earth, Wind & Fire
Title: Spirit
Label: Big Break Records
Country: UK
Released: 16 Jun 2014
Style: Rhythm & Blues, Soul, Funk
Cat: CDBBRX0185
Rating: 4.6/5
Format: MP3, FLAC, WMA
FLAC size: 1434 mb | MP3 size: 2285 mb | WMA size: 1979 mb
Genre: Funk
Tracklist

1Seraphim
Composed By – Larry Dunn, Maurice White
2Getaway (12" Version)
Composed By – Beloyd Taylor, Peter Cor
3Saturday Nite (Alternate Mix)
Composed By – Al McKay, Maurice White, Philip Bailey
4 Bonus Tracks
5Burnin' Bush
Composed By – Jerry Peters
6Imagination (Angels Mix)
Composed By – Charles Stepney, Maurice White, Philip Bailey
7On Your Face
Composed By – Charles Stepney, Maurice White, Philip Bailey
8Departure (The Traveler)
Composed By – Larry Dunn, Maurice White
9Imagination
Composed By – Charles Stepney, Maurice White, Philip Bailey
10African Symphony
Composed By – Maurice White
11Spirit
Composed By – Larry Dunn, Maurice White
12Getaway (Instrumental Version)
Composed By – Beloyd Taylor, Peter Cor
13Getaway
Composed By – Beloyd Taylor, Peter Cor
14Saturday Nite
Composed By – Al McKay, Maurice White, Philip Bailey
15Earth, Wind & Fire
Composed By – Maurice White, Skip Scarborough
16Departure (Single Version)
Composed By – Larry Dunn, Maurice White
17Saturday Nite (Single Version)
Composed By – Al McKay, Maurice White, Philip Bailey
18Biyo
Composed By – Al McKay, Maurice White
19Departure
Composed By – Larry Dunn, Maurice White

Versions

CategoryArtistTitle (Format)LabelCategoryCountryYear
PC 34241Earth, Wind & Fire Spirit ‎(LP, Album)ColumbiaPC 34241US1976
CK 65739Earth, Wind & Fire Spirit ‎(CD, Album, RE, RM)Columbia, LegacyCK 65739US2001
PC 34241, X698Earth, Wind & Fire Spirit ‎(LP, Album)Columbia, ColumbiaPC 34241, X698US1976
CBS 465570 2Earth, Wind & Fire Spirit ‎(CD, Album, RE)CBSCBS 465570 2Europe1990
CK 34241Earth, Wind & Fire Spirit ‎(CD, Album, RE)ColumbiaCK 34241USUnknown

Credits

  • Bass TromboneLew McCreary
  • CelloDennis Karmazyn, Harry Shlutz, Marie Fera, Ronald Cooper
  • ConcertmasterCharles Veal
  • Drums, PercussionFred White, Ralph Johnson
  • French HornArt Maebe, David Duke, Marilyn Robinson, Sidney Muldrow
  • GuitarJohnny Graham
  • Guitar, PercussionAl McKay
  • HarpDorothy Ashby
  • PercussionHarvey Mason
  • PianoJerry Peters
  • Piano, Organ, Synthesizer [Moog]Larry Dunn
  • ProducerCharles Stepney
  • Producer [Reissue]Leo Sacks
  • Producer, Vocals, Kalimba, Drums, TimbalesMaurice White
  • SaxophoneDon Myrick
  • Saxophone, PercussionAndrew Woolfolk
  • TromboneCharles Loper, George Bohanon, Louis Satterfield
  • TrumpetChuck Findley, Michael Harris, Oscar Brashear, Steve Madaio
  • TubaTommy Johnson
  • ViolaBarbara Thomason, David Campbell, Denyse Buffum, James Dunham, Linn Subotnick, Marilyn Baker, Paul Polivnick, Rollice Dale
  • ViolinAssa Drori, Carl LaMagna, Haim Shtrum, Harris Goldman, Joy Lyle, Kenneth Yerke, Sandy Seemore, Winterton Garvey
  • Vocals, Bass, PercussionVerdine White
  • Vocals, Congas, PercussionPhilip Bailey

Notes

Made in EC

Barcodes

  • Barcode: 5013929048539
  • ASIN: B00JVSIH9S
  • Rights Society: MCPS

Video

Comments (1)
Milleynti
----
DR Peak RMS Filename
----------------------------------------------------------------------------------------------

DR13 -0.67 dB -19.91 dB 13 Earth, Wind & Fire - Departure (The Traveler).aiff
DR14 -0.30 dB -16.55 dB 18 Earth, Wind & Fire - Getaway (Instrumental).aiff
DR13 -0.30 dB -15.82 dB 10 Earth, Wind & Fire - Saturday Nite (Alternative Mix).aiff
DR16 -0.30 dB -21.01 dB 14 Earth, Wind & Fire - African Symphony.aiff
DR11 -5.99 dB -19.75 dB 12 Earth, Wind & Fire - Imagination (Angels Mix).aiff
DR13 -0.30 dB -15.78 dB 06 Earth, Wind & Fire - Earth, Wind & Fire.aiff
DR14 -0.30 dB -16.13 dB 16 Earth, Wind & Fire - Saturday Nite (Single Version).aiff
DR15 -0.47 dB -19.81 dB 09 Earth, Wind & Fire - Burnin' Bush.aiff
DR11 -1.52 dB -19.61 dB 17 Earth, Wind & Fire - Departure (Single Version).aiff
DR11 -9.25 dB -27.08 dB 07 Earth, Wind & Fire - Departure.aiff
DR13 -0.30 dB -15.38 dB 15 Earth, Wind & Fire - Getaway (12" Disco Version).aiff
DR13 -0.30 dB -14.70 dB 02 Earth, Wind & Fire - On Your Face.aiff
DR12 -0.30 dB -15.97 dB 04 Earth, Wind & Fire - Spirit.aiff
DR14 -0.30 dB -16.04 dB 03 Earth, Wind & Fire - Imagination.aiff
DR13 -0.30 dB -15.64 dB 08 Earth, Wind & Fire - Biyo.aiff
DR14 -0.30 dB -15.96 dB 05 Earth, Wind & Fire - Saturday Nite.aiff
DR13 -0.30 dB -15.02 dB 01 Earth, Wind & Fire - Getaway.aiff
DR16 -0.30 dB -18.74 dB 11 Earth, Wind & Fire - Seraphim.aiff
----------------------------------------------------------------------------------------------

Number of Files: 18
Official DR Value: DR13

==============================================================================================