» » Freddie Jackson - Just Like The First Time
Freddie Jackson - Just Like The First Time Album
Freddie Jackson - Just Like The First Time Album
Performer: Freddie Jackson
Title: Just Like The First Time
Label: Capitol Records
Country: Japan
Released: 20 Dec 1986
Style: Soul, Funk
Cat: CP32-5178
Rating: 4.3/5
Format: MP3, FLAC, WMA
FLAC size: 1083 mb | MP3 size: 1706 mb | WMA size: 2190 mb
Genre: Funk
Tracklist

1I Don't Wanna To Lose Your Love4:12
2Have You Ever Loved Somebody4:38
3Look Around5:05
4Tasty Love4:23
5Still Waiting5:01
6Janay'4:58
7Jam Tonight4:33
8Yo Are My Love5:25
9Just Like The First Time3:59
10I Can't Let You Go4:51

Versions

CategoryArtistTitle (Format)LabelCategoryCountryYear
ST-12495Freddie Jackson Just Like The First Time ‎(LP, Album)Capitol RecordsST-12495US1986
0 7777-12495-1 8Freddie Jackson Just Like The First Time ‎(LP, Album)Capitol Records0 7777-12495-1 8Portugal1986
ST-12495Freddie Jackson Just Like The First Time ‎(LP, Album, Promo)Capitol RecordsST-12495Australia1986
062-2406301Freddie Jackson Just Like The First Time ‎(LP, Album)Capitol Records062-2406301Greece1986
ECS-91195Freddie Jackson Just Like The First Time ‎(LP, Promo)Capitol RecordsECS-91195Japan1986

Companies

  • Manufactured By – Toshiba EMI Ltd

Video

Comments (1)
Ungall
foobar2000 1.3.17 / Dynamic Range Meter 1.1.1
log date: 2018-03-26 20:52:07

--------------------------------------------------------------------------------
Analyzed: Freddie Jackson / Just Like The First Time [JP 1986 CP32-5178 CD]
--------------------------------------------------------------------------------

DR Peak RMS Duration Track
--------------------------------------------------------------------------------
DR18 0.00 dB -20.28 dB 4:23 01-Tasty Love
DR13 -2.34 dB -18.67 dB 4:38 02-Have You Ever Loved Somebody
DR15 -1.40 dB -18.76 dB 5:05 03-Look Around
DR17 0.00 dB -19.07 dB 4:33 04-Jam Tonight
DR13 -2.09 dB -18.75 dB 3:59 05-Just Like The First Time
DR15 -1.97 dB -18.64 dB 4:51 06-I Can't Let You Go
DR16 -1.64 dB -21.28 dB 4:12 07-I Don't Want To Lose Your Love
DR14 -2.21 dB -19.49 dB 4:58 08-Janay
DR15 -2.56 dB -20.11 dB 5:01 09-Still Waiting
DR11 -5.69 dB -19.51 dB 5:25 10-You Are My Love
--------------------------------------------------------------------------------

Number of tracks: 10
Official DR value: DR15

Samplerate: 44100 Hz
Channels: 2
Bits per sample: 16
Bitrate: 802 kbps
Codec: ALAC
================================================================================