» » Melissa Manchester - Bright Eyes
Melissa Manchester - Bright Eyes Album
Melissa Manchester - Bright Eyes Album
Performer: Melissa Manchester
Title: Bright Eyes
Label: Wounded Bird Records
Country: US
Released: 2006
Style: Jazz-Rock, Gospel, Soul, Ballad, Ragtime
Cat: WOU 4011
Rating: 4.0/5
Format: MP3, FLAC, WMA
FLAC size: 2015 mb | MP3 size: 1103 mb | WMA size: 1199 mb
Genre: Jazz / Funk / Pop
Tracklist

1O Heaven (How You've Changed To Me)
Backing Vocals – Hilda Harris, Leslie Miller, The Dixie HummingbirdsBass – Cooker Lo PrestiDrums – Kirk BrunerGuitar – David WolfertOrgan – Chris Dedrick, Don GrolnickPercussion – George Devens, Hank MedressPiano – Melissa ManchesterPiano [Electric] – Stanley Schwartz
3:29
2He Is The One
Bass – Cooker Lo PrestiDrums – Allan SchwartzbergGuitar – Jerry FriedmanPiano – Melissa Manchester, Stanley Schwartz
3:50
3Ode To Paul
Backing Vocals – Hank MedressBass – Cooker Lo PrestiDrums – Kirk BrunerGuitar – David WolfertPercussion – Cooker Lo Presti, Dave Appell, Hank Medress, Kirk BrunerPiano [Electric] – Melissa ManchesterPiccolo Flute – Stanley Schwartz
3:22
4Bright Eyes
Bass – Cooker Lo PrestiDrums – Kirk BrunerGuitar – David WolfertPiano – Melissa ManchesterPiano [Electric], Saxophone – Stanley SchwartzTrumpet – Chris Dedrick
4:26
5Ruby And The Dancer
Bass – Cooker Lo PrestiGuitar – Chris Dedrick, David WolfertPiano – Melissa Manchester
4:19
6No. 1 (Ahwant Gimmeh)
Bass – Cooker Lo PrestiClarinet – Chris DedrickDrums – Kirk BrunerFlute – Stanley SchwartzGuitar – David WolfertPercussion – David Wolfert, George Devens, Rick ChertoffPiano – Melissa Manchester
3:50
7Alone
Bass – Richard Davis Drums – Kirk BrunerGuitar – David WolfertPiano – Melissa ManchesterSaxophone – Stanley SchwartzVibraphone – George Devens
3:15
8Inclined
Piano [Electric] – Melissa Manchester
4:20
9I Can't Get Started
Acoustic Guitar – Dave AppellDrums – Kirk BrunerVocals, Bass – Cooker Lo Presti
3:46

Versions

CategoryArtistTitle (Format)LabelCategoryCountryYear
BELL 1303Melissa Manchester Bright Eyes ‎(LP, Album)Bell RecordsBELL 1303US1974
BELL 1303Melissa Manchester Bright Eyes ‎(LP, Album, Promo)Bell RecordsBELL 1303US1974
AB 4011Melissa Manchester Bright Eyes ‎(LP, RE)AristaAB 4011USUnknown
AL 4011Melissa Manchester Bright Eyes ‎(LP, Album)Arista RecordsAL 4011Canada1974
BELL 1303Melissa Manchester Bright Eyes ‎(LP, Album)Bell RecordsBELL 1303Canada1974

Credits

  • Arranged ByMelissa Manchester
  • Arranged By [Strings, Horns]Chris Dedrick
  • Engineer, Mixed ByBilly Radice
  • ProducerDave Appell
  • Producer, Arranged By, Mixed ByHank Medress

Notes

Originally released in 1974
Recorded At Le Studio, New York City

Barcodes

  • Barcode (Scanned): 664140401129

Video

Comments (1)
Marilace
foobar2000 1.3.17 / Dynamic Range Meter 1.1.1
log date: 2018-11-04 17:54:49

--------------------------------------------------------------------------------
Analyzed: Melissa Manchester / Bright Eyes [US 2006 CD]
--------------------------------------------------------------------------------

DR Peak RMS Duration Track
--------------------------------------------------------------------------------
DR9 -0.32 dB -11.82 dB 4:29 01-Bright Eyes
DR10 -0.62 dB -13.56 dB 3:21 02-Alone
DR9 -0.31 dB -12.58 dB 3:29 03-O Heaven (How You've Changed Me)
DR11 -0.45 dB -14.59 dB 4:22 04-Inclined
DR10 -0.37 dB -12.31 dB 3:52 05-No. 1 (Ahwantgemmeh)
DR10 -0.32 dB -13.23 dB 3:24 06-Ode to Paul
DR11 -0.31 dB -13.49 dB 3:50 07-I Can't Get Started
DR9 -0.32 dB -13.44 dB 3:53 08-He Is the One
DR10 -0.55 dB -12.90 dB 4:21 09-Ruby and the Dancer
--------------------------------------------------------------------------------

Number of tracks: 9
Official DR value: DR10

Samplerate: 44100 Hz
Channels: 2
Bits per sample: 16
Bitrate: 791 kbps
Codec: ALAC
================================================================================