» » Ray Parker Jr. - Woman Out Of Control
Ray Parker Jr. - Woman Out Of Control Album
Ray Parker Jr. - Woman Out Of Control Album
Performer: Ray Parker Jr.
Title: Woman Out Of Control
Label: Funkytowngrooves, Arista, Sony Music Commercial Music Group
Country: US
Released: Jun 2012
Style: Rhythm & Blues, Soul, Synth-pop
Cat: FTG-289, 88691970892
Rating: 4.8/5
Format: MP3, FLAC, WMA
FLAC size: 1213 mb | MP3 size: 1668 mb | WMA size: 2581 mb
Genre: Electronic / Funk
Tracklist

1I Still Can't Get Over Loving You4:06
2N2U23:52
3I Don't Wanna Know4:31
4Invasion7:30
5 Bonus Track
6Woman Out Of Control4:13
7Jack And Jill (Back Up The Hill) (1982 Version)8:25
8In The Heat Of The Night4:13
9Electronic Lover4:26
10She Still Feels The Need4:05

Versions

CategoryArtistTitle (Format)LabelCategoryCountryYear
ARS 39181Ray Parker Jr. Woman Out Of Control ‎(LP, Album)AristaARS 39181Italy1983
818 090-1Ray Parker Jr. Woman Out Of Control ‎(LP, Album)Arista818 090-1Brazil1983
7819Ray Parker Jr. Woman Out Of Control ‎(LP, Album)Arista7819Venezuela1983
AL8 8087Ray Parker Jr. Woman Out Of Control ‎(LP, Album)AristaAL8 8087Canada1983
818 090-1Ray Parker Jr. Woman Out Of Control ‎(LP, Album)Arista818 090-1Greece1983

Credits

  • Backing VocalsAlex Brown, Anita Sherman, Arnell Carmichael, J.D. Nicholas, Ray Parker Jr.
  • Co-producerOllie E. Brown
  • CongasEddie "Bongo" Brown
  • Design [Reissue Package]Roger Williams
  • Drums, Bass, Guitar, Piano, Synthesizer, Lead Vocals, Recorded By, Mixed By, Written-By, EngineerRay Parker Jr.
  • Engineer [Assistant]Steve Hallquist
  • ManagementCavallo, Ruffalo & Fargnoli
  • Production Manager [Reissue]Matt Murphy
  • Reissue ProducerTony Calvert
  • Reissue Producer [Assistant]Randy Mahon
  • Remastered BySean Brennan
  • Saxophone, FluteCharles Green
  • TambourineJack Ashford

Notes

Originally released as an LP on Arista, 1983.

Track 5 is misspelled as "I Don't Want to Know".

Barcodes

  • Barcode (Text): 8 51903 00337 3
  • Matrix / Runout: DIDX-814754 1
  • Mastering SID Code: IFPI L328
  • Mould SID Code: IFPI 50ED
  • Barcode (Scanned): 851903003373

Companies

  • Phonographic Copyright (p) – RCA Records
  • Copyright (c) – Funkytowngrooves USA
  • Manufactured By – Sony Music Entertainment
  • Recorded At – Ameraycan Studios
  • Engineered At – Ameraycan Studios
  • Mixed At – Ameraycan Studios
  • Remastered At – Battery Studios, New York

Video

Comments (2)
Pad
foobar2000 1.3.17 / Dynamic Range Meter 1.1.1
log date: 2019-02-03 13:10:16

--------------------------------------------------------------------------------
Analyzed: Ray Parker Jr. / Woman Out Of Control [US 2012 Expanded Edition CD]
--------------------------------------------------------------------------------

DR Peak RMS Duration Track
--------------------------------------------------------------------------------
DR12 -0.03 dB -14.06 dB 4:16 01-Woman Out Of Control
DR12 -0.11 dB -13.35 dB 4:10 02-I Still Can't Get Over Loving You
DR12 -0.16 dB -13.47 dB 4:29 03-Electronic Lover
DR12 -0.10 dB -13.17 dB 4:17 04-In The Heat Of The Night
DR13 -0.07 dB -13.97 dB 4:32 05-I Don't Want To Know
DR11 -0.20 dB -12.70 dB 4:09 06-She Still Feels The Need
DR12 -0.17 dB -13.69 dB 7:33 07-Invasion
DR12 -0.11 dB -13.26 dB 3:52 08-N2U2
DR12 -0.13 dB -13.07 dB 8:25 09-Jack And Jill (Back Up The Hill) (1982 Version)
--------------------------------------------------------------------------------

Number of tracks: 9
Official DR value: DR12

Samplerate: 44100 Hz
Channels: 2
Bits per sample: 16
Bitrate: 904 kbps
Codec: ALAC
================================================================================
Ffyan
A cheap reissue of this rare album, including a bonus track never seen before on CD.

According to the waveforms, this record has been clipped and compressed, with bass frequencies emphasized and owerblowed. Also, the silence between the tracks has been shortened.
There's even a repeated typo, with the song "I Don't Wanna Know" incorrectly reported as "I Don't Want to Know".