» » Terence Boylan - Suzy
Terence Boylan - Suzy Album
Terence Boylan - Suzy Album
Performer: Terence Boylan
Title: Suzy
Label: Wounded Bird Records
Country: US
Released: 2008
Style: Soft Rock, AOR
Cat: WOU 6201
Rating: 4.7/5
Format: MP3, FLAC, WMA
FLAC size: 1839 mb | MP3 size: 1680 mb | WMA size: 1925 mb
Genre: Rock
Tracklist

1Shake Your Fiorucci
2$50 An Hour
3Tell Me
4Going Home
5College Life
6The End Of The Line
7Suzy
8Ice And Snow
9Dump It In The River
10Miso Soup
11Roll Your Own
12Did She Finally Get To You

Versions

CategoryArtistTitle (Format)LabelCategoryCountryYear
6E-201Terence Boylan Suzy ‎(LP, Album, SP )Asylum Records6E-201US1980
6E-201Terence Boylan Suzy ‎(LP, Album, AR)Asylum Records6E-201US1980
6E-201Terence Boylan Your Trout Is In The Mail ‎(LP, TP)Elektra6E-201USUnknown
6E-201Terence Boylan Suzy ‎(LP, Album, Promo)Asylum Records6E-201US1980
P-10836YTerence Boylan Suzy ‎(LP, Album)Asylum RecordsP-10836YJapan1980

Notes

Original released 1980 on Asylum Records.

Barcodes

  • Barcode: 664140620124

Video

Comments (1)
Jorius
foobar2000 1.3.17 / Dynamic Range Meter 1.1.1
log date: 2018-04-23 16:43:44

--------------------------------------------------------------------------------
Analyzed: Terence Boylan / Suzy
--------------------------------------------------------------------------------

DR Peak RMS Duration Track
--------------------------------------------------------------------------------
DR9 -0.33 dB -11.50 dB 2:54 01-Suzy
DR11 -0.31 dB -13.00 dB 2:33 02-Shake Your Fiorucci
DR9 -0.31 dB -11.86 dB 4:41 03-College Life
DR12 -0.31 dB -14.33 dB 4:09 04-Dump It In The River
DR10 -0.31 dB -12.35 dB 2:53 05-$50 An Hour
DR8 -0.37 dB -10.66 dB 2:51 06-Roll Your Own
DR8 -0.32 dB -11.57 dB 4:02 07-Did She Finally Get To You
DR9 -0.47 dB -11.29 dB 3:56 08-Tell Me
DR9 -0.33 dB -13.24 dB 3:22 09-Ice And Snow
DR10 -0.32 dB -12.84 dB 3:26 10-Going Home
DR11 -0.38 dB -14.46 dB 3:11 11-End Of The World
DR9 -0.32 dB -12.16 dB 3:32 12-Miso Soup
--------------------------------------------------------------------------------

Number of tracks: 12
Official DR value: DR10

Samplerate: 44100 Hz
Channels: 2
Bits per sample: 16
Bitrate: 905 kbps
Codec: ALAC
================================================================================